Queen Discography Alac

3 MB: 2: 4: Music: Unsorted Supertramp Retrospectacle The Supertramp Anthology mp3: 353. QUEEN(以下・クイーン)の栄光と軌跡を巡る展覧会『QUEEN EXHIBITION JAPAN ~Bohemian Rhapsody~』が日本橋髙島屋S. Includes instant download of the album in HD 24bit/96khz in any or all formats of your choice: FLAC, WAV, ALAC/M4A, MP3-320. FLAC 16 bit / Jazz / Vocal Jazz / Discography 20-10-2020, 02:38 218 aleXs All albums Billie Holiday Quality: FLAC 16 bit / 44. Nirvana Live. (Apple Lossless Audio Codec): Plays On iTunes Apple Lossless supports up to 8 channels of audio at 16, 20, 24 and 32 bit depth with a maximum sample rate of 384kHz. m4a Apple Music Rip 256 Kbps Various Artists - Top 30 Most. 14: 0: 47275 기타: Queen 1973~2008 FLAC 토렌트가가 직공 2018. Queen - Queen On Fire Live At The Bowl 24 bit Vinyl Rip Year Of Release: 2018 Genre: Rock Format: Flac, Tracks Bitrate: lossless, 24bit Sample Rate: 96000Hz Audio Channels: 2. Apple Lossless (ALAC) uses an MP4 container (with a. Artista: Queen Titulo: Queen - Greatest Hits I,II,III Platinum Collection (3CDs). Quality: FLAC 24 bit / 96 kHz (Tracks) + FLAC 16 bit / 44. to/TheseTwoWindowsIDShop 'These Two Windows' merch: https://alecbenjamin. En estos discos, aún podemos encontrar a unos Queen bastante Rockers y Heavys en algunas canciones, pero lo que predomina es la experimentación entrando a terrenos ajenos a su dirección musical de su primera época, sin perder la calidad, y lo mejor de todo, son canciones accesibles, muy coreables, como debe ser: memorables. v = Released as both an UltraDisc and an UltraDisc II. A Night at the Opera Queen: 5. Greatest Hits Volume I & Volume II Billy Joel: 3. Music Torrents. Save 20% on John Wilson's Chandos Discography. 29 3 페티 | 아찔한 몸매 인스타 비키니녀 모음. Angra - Discography (1992 - 2010)[160~231, except Temple of Shadows in 16] Anita Baker - Rhythm of Love. Prague has always been regarded as one of the most beautiful cities in the world. 2013 You can also request more discographies @ wrathem(dot)com. Purcell's instrumental writing leaps off the page with string writing that is second to none and a wealth of variety capped by exquisite writing for trumpet, oboes and. Filename C:\EACrips\Hinder - Extreme Behavior [FLAC]\09 - Homecoming Queen. The 1975 Discography. Apple Lossless data is frequently stored within an MP4 container with the filename extension. storeAlec Benjamin - '. Stream and download in Hi-Res on Qobuz. The March Of The Black Queen 10. Mu-so è il nostro primo sistema musicale wireless. 29 2 드라 | 여신강림. Brian May (ex-Queen) - Another World (1998. They were very influential to the music and culutre of their time and for that they earned a place in the Rock and Roll Hall of Fame in 2001. Artista: Queen Titulo: Queen - Greatest Hits I,II,III Platinum Collection (3CDs). uk is officially closed. Live At The Paramount. BATTEN SHOWJOTAI – FUN [2020] CD Album No Comments on BATTEN SHOWJOTAI – FUN [2020] CD Album. Brazzaville - The Official Discography (1998-2018) (11 Albums, 2 Compilations + David Arthur Brown solo album) lossless 439. 9 % Test CRC A41FAE98. ISSIN ITTAI 06. 53 GB, Скачать. Tewonobasu 08. Seven Seas of Rhye. Phil the Greek behaves badly; Charles “Jug Ears” Windsor snivels; the Dear Leader grins inanely, but though he motivates HM the Q to pull the stick out, the character is a caricature (Rory Bremner should’ve been playing him); Mrs Dear Leader behaves as if she’s lower middle. Full Discography List @ wrathem(dot)com - Free download as PDF File (. ALAC Downloads ALAC 176kHz/24bit Download ALAC 192kHz/24bit Download ALAC 44kHz/24bit Download DSD Queen: 2. (John Deacon joined in March 1971, giving them their fourth and final bass player). 0 Total Size: 819. net or download our mobile music app. 51 MB: 40: 8: Music. Download/Stream 'These Two Windows': https://alecbenjamin. Among these, L'arada emerges as a particularly intriguing work. Ogre Battle 7. Ra Ra Riot's Wes Miles on Recording at His Parents' House, Learning to be a Frontman, and Falsetto. 1kHz Total Size: 34. But ALAC is 16 bit lossless 48 KHz. Ariana Grande - Discography (2013-2020)[16~24/MQA] Arvo Part - Various works. offer ends 29th January 2021;& excludes 2021 new releases. Spawning Pool 7. The Fairy Feller's Master-Stroke 8. matt d avella site patreon com; What happens when a tech savvy filmmaker loves expensive camera gear, but is also minimalist? Matt D Avella walks the fine line of owning cutting edge without being consumed by it squarespace collects data visit website, including: information browser, network web pages visited prior coming your ip address. Download QUEEN -ABSOLUTE GREATEST [email protected] torrent or any en el rar 2008 Queen Greatest Hits III [LOSSLESS FLAC] Styx - Greatest Hits Delicate 6. Yanga Chief is at it again with yet another irreplaceable banger hit track which have being making serious waves in the music industry captioned Popstar. Download Flash Gordon (Remastered) by Queen at Juno Download. The Loser In The End 6. Jesu Christ Pose (Cover of Soundgarden) 5. Spawning Pool 7. 14: 0: 47276 기타: Europe - Discography 1983~2008 FLAC 토렌트 직공 2018. ALAC is Apple lossless, and could be better than CD if the conversion to ALAC started with 24 bit we’ll mastered files. ~ MFSL UltraDisc & UltraDisc II 24 kt. The Beatles Discography Download Kickass. Anthony Ramos - The Freedom EP, The Good & The Bad. matt d avella site patreon com; What happens when a tech savvy filmmaker loves expensive camera gear, but is also minimalist? Matt D Avella walks the fine line of owning cutting edge without being consumed by it squarespace collects data visit website, including: information browser, network web pages visited prior coming your ip address. If you look at this article, I would like to ask you an answer. Nirvana Live. net or download our mobile music app. on 29-10-19, 18:31 66 0 Musica HD / Musica Flac Lossless. The reissue features the original album, now on 2xLP for improved sound, along with the band’s pre-Sub Pop, self-titled EPs (released in 2003 and 2004), both of which are making. ISSIN ITTAI 06. Lynyrd Skynyrd - 23 CD Discography [FLAC] vtwin88cube Mozart Premium Edition 40 CDs ALAC. rar - DOWNLOAD. HDtracks offers WAV, AIFF, ALAC and FLAC file formats. 15 MB: 15: 2: Music: Rock Supertramp The Audiobiograpy Flac Cue TntVillage: 405. Скачать Helloween_-_Discography_1985-2015_alac. m4a Apple Music Rip 256 Kbps Various Artists - Top 30 Most. 29 3 페티 | 아찔한 몸매 인스타 비키니녀 모음. Needless to say, it's one of my favourite songs of recent years. store'Narrated For You. Rumours Fleetwood Mac: 6. ALAC Downloads ALAC 176kHz/24bit Download ALAC 192kHz/24bit Download ALAC 44kHz/24bit Download DSD Downloads DSD (Double Rate) 5. Brazzaville - The Official Discography (1998-2018) (11 Albums, 2 Compilations + David Arthur Brown solo album) lossless 439. Filename C:\EACrips\Hinder - Extreme Behavior [FLAC]\09 - Homecoming Queen. The list of (metal, rock, indie rock, blues, jazz, electronic and more) discographies @ wrathem(dot)com Last Update : 05. About: HDtracks, launched in 2008, offers the largest variety of available hi res titles for download along with a wide choice of file formats, with sample rates as high as 352/24-bit. Draconian - Discography (Lossless) 10 1 572. Anthrax - Discography 1983-2018 (alac) 9 torrent download locations Download Direct Anthrax - Discography 1983-2018 (alac) could be available for direct download Spónsored Link google. About Us; Chandos Records is one of the world's premier classical music record companies, best known for its ground breaking search for neglected musical gems. Free Movies Download. His Chants d'Auvergne has long been very popular. Anthony Ramos - The Freedom EP, The Good & The Bad. Ariana Grande - Discography (2013-2020)[16~24/MQA] Arvo Part - Various works. They also offer full album artwork and liner notes in PDF format for hardcore fans which is one of those things we seem to have lost in the digital age. Stream and download in Hi-Res on Qobuz. Follow the link from the album page to True North purchase page, or use this link to True North Label Store. aaroni2011 New Member. If it is difficult, mp3 320 sound source is okay. I have the CD copied into iTunes with Apple Lossless and I play the music on my iPod with a half-decent set of earbuds only. com Anthrax - Discography 1983-2018 (alac) Music. [DHR-Raws](200902)[Album]雨宮天 – Paint it, BLUE (ALAC_MP3)生産限定盤Making Movie付 [DHR-Raws](200902)[Album]雨宮天 – Paint it, BLUE(MP3 320K) 01-Paint it, BLUE -overture-. 51 MB: 40: 8: Music. BATTEN SHOWJOTAI – FUN [2020] CD Album No Comments on BATTEN SHOWJOTAI – FUN [2020] CD Album. Aurora - Discography (2015-2019)[24, except Infections of a Different Kind which is in 16] AZ - Do or Die. Seven Seas of Rhye. Deep Purple - Studio Discography (Remastered) - (1968-2013) ALAC Lossless. Queen was a British rock band circa 1970-today (if you want to be technical). Explore releases from Arum Rae at Discogs. wav Peak level 99. Discografía Queen Completa - Calidad ALAC - Excelente Rango Dinámico jueves, junio 18, 2020 Jorge Pablo Alonso. Snow white queen. But ALAC is 16 bit lossless 48 KHz. Brian May - Collaborations I & II 2017 (lossless) 441. WE ARE the. 14: 0: 47275 기타: Queen 1973~2008 FLAC 토렌트가가 직공 2018. com] [991 MB in 181 files, MP3] [Oud - Jazz Fusion] Ahmed Abdul-Malik and Chick Ganimian - Oud Vibrations 2011 (JTM) [163 MB in 24 files, MP3] John Bilezikjian - Played On The Oud [104 MB in 19 files, MP3] [Oriental Jazz-Oud] Joseph Tawadros - Chameleons Of The White Sh [163 MB in 16 files, MP3]. Queen Discography Search results for goo goo dolls discography - pro evo soccer MP3 (tracks, image), CBR 320 kbps. Metallica Discography Rar. Anthrax - Discography 1983-2018 (alac) 4 torrent download locations Download Direct Anthrax - Discography 1983-2018 (alac) could be available for direct download Spónsored Link google. com Anthrax - Дискография (1983-2018) ALAC Music 1 year torlock. But what ideas! Almost every one of Queen's signatures are already present, from Freddie Mercury's operatic harmonies to Brian May's rich, orchestral guitar. She started out in the adult entertainment industry as a web-cam girl. torrent Как тут качать?. The Loser In The End 6. A Night At The Opera (deluxe Edition 2011 Remaster). Brian May - Back to the light - 1992 [lossless] 440. Software Torrents. The list of (metal, rock, indie rock, blues, jazz, electronic and more) discographies @ wrathem(dot)com Last Update : 05. (Apple Lossless Audio Codec): Plays On iTunes Apple Lossless supports up to 8 channels of audio at 16, 20, 24 and 32 bit depth with a maximum sample rate of 384kHz. [DHR-Raws](200902)[Album]雨宮天 – Paint it, BLUE (ALAC_MP3)生産限定盤Making Movie付 [DHR-Raws](200902)[Album]雨宮天 – Paint it, BLUE(MP3 320K) 01-Paint it, BLUE -overture-. 00 SIGCD474 Download only Studio Master FLAC & ALAC downloads available A second voyage through the miracle that is the Baldwin Partbooks draws from the singers of Contrapunctus and their director Owen Rees performances of rare integrity—and. Jesu Christ Pose (Cover of Soundgarden) 5. Abigail Mac, Actress: Abigail. The Official Queen Website. The name ‘Cor Europae’ (Heart of Europe) probably dates from the country’s early history, in the thirteenth century, when the Kingdom of Bohemia stretched from the Baltic to the Mediterranean. White Queen (As It Began) 4. 2 GB August 06, 2020. Software Torrents. However, I would like to ask whether FLAC lossless sound sources other than ALAC sound sources for IOS users are also up-dated. Lynyrd Skynyrd - 23 CD Discography [FLAC] vtwin88cube Mozart Premium Edition 40 CDs ALAC. 5 / 5 , 4 votes. wav Peak level 99. The Snow Queen | Theory27. Comments Off on Queen Greatest Hits (1981/2014/2016) [HDTracks FLAC 24bit/96kHz] Queen Greatest Hits. 6 GB | 3% RAR. pdf), Text File (. Download discography Queen on site losslessalbums. We are the light (Instrumental) Click Here Download from Rapidgator, Uploaded, PUBG-File, KatFile. ALAC Downloads ALAC 176kHz/24bit Download ALAC 192kHz/24bit Download ALAC 44kHz/24bit Download DSD Downloads DSD (Double Rate) 5. Seven Seas of Rhye. The Discography (18`CD / 4`WEB) - 2000-2014, ALAC (tracks+. The Loser In The End 6. Yanga Chief – Popstar ZIP DOWNLOAD. Nirvana Live. Profile: Queen is a British rock band formed in London in 1970 from a previously disbanded Smile (6). Drive Song (ドライブソング) 3. SHN extension and requires fewer resources for its reproduction. Filename C:\EACrips\Hinder - Extreme Behavior [FLAC]\09 - Homecoming Queen. 51 MB: 40: 8: Music. Buxom and shapely 5'2" brunette knockout Abigail Mac was born on June 2, 1988 in Columbia, Maryland. 9 % Track quality 100. com Anthrax - Дискография (1983-2018) ALAC Music 1 year torlock. Discografía Queen Completa - Calidad ALAC - Excelente Rango Dinámico jueves, junio 18, 2020 Jorge Pablo Alonso. A New Silence 4. Download A Night At The Opera (deluxe Edition 2011 Remaster) by Queen at Juno Download. So, these formats may be considered as the best by the sound quality. Feel free to join IMPORTANT! GIVE USERNAME SO WE KNOW WHO YOU ARE CLICK ME As usual, I'll be doing my. Angra - Discography (1992 - 2010)[160~231, except Temple of Shadows in 16] Anita Baker - Rhythm of Love. 99 EUR : MP3: 12. Скачать Helloween_-_Discography_1985-2015_alac. 1974: Sheer Heart Attack - Queen. Founded in 1970, Queen released their self-titled debut album in 1973. 00 ALAC 24-bit 96 kHz £12. From The Muddy Banks Of The Wishkah ALAC 1996 Discography FLAC 1989-2013. Download/Stream 'These Two Windows': https://alecbenjamin. Funny How Love Is 11. Read more details > Which is the highest quality audio format? Audio format can't improve the sound quality. Discography (1995-2010) ALAC. The Official Queen Website. Draconian - Under a Godless Veil (Lossless) 15 0 380. [Single] miwa – We are the light [MP3 + ALAC / CD/RAR] 1. Despite not being an immediate success, Queen gained popularity in Britain with their second album Queen II in 1974. Comments Off on Queen Greatest Hits (1981/2014/2016) [HDTracks FLAC 24bit/96kHz] Queen Greatest Hits. Queen was a British rock band circa 1970-today (if you want to be technical). Queen - Queen On Fire Live At The Bowl 24 bit Vinyl Rip Year Of Release: 2018 Genre: Rock Format: Flac, Tracks Bitrate: lossless, 24bit Sample Rate: 96000Hz Audio Channels: 2. Ogre Battle 7. 1 kHz (Tracks) Artist: Queen & Adam Lambert Title: Live Around The World Released: 2020 Style: Rock RAR Size: 1. ISSIN ITTAI 06. m4a Apple Music Rip 256 Kbps Various Artists - Top 30 Most. Originally called Smile, in 1970 singer Freddie Mercury came up with the new name for the band. rar - DOWNLOAD. The Loser In The End 6. v = Released as both an UltraDisc and an UltraDisc II. Comments Off on Queen Greatest Hits (1981/2014/2016) [HDTracks FLAC 24bit/96kHz] Queen Greatest Hits. Helloween - Дискография (1985-2015) ALAC. Which brings me to the final words of my review. Aurora - Discography (2015-2019)[24, except Infections of a Different Kind which is in 16] AZ - Do or Die. Originally called Smile, in 1970 singer Freddie Mercury came up with the new name for the band. A Night At The Opera (deluxe Edition 2011 Remaster). Wish (Cover of Nine Inch Nails) 3. Queen II is now acknowledged as a landmark in the band’s development and while it is hardly obscure, in America it is considered to be a cult artefact revered by the likes of Billy Corgan, Steve. QUEEN(以下・クイーン)の栄光と軌跡を巡る展覧会『QUEEN EXHIBITION JAPAN ~Bohemian Rhapsody~』が日本橋髙島屋S. queen discography 320 kbps Queen Discography 1967-2009 Mp3 320 Kbps >>> DOWNLOAD 8 - 1967-2009, MP3, 128-320 kbps (lossy) :: RuTracker. Spawning Pool 7. Aurora - Discography (2015-2019)[24, except Infections of a Different Kind which is in 16] AZ - Do or Die. Listen to Bohemian Rhapsody, Another One Bites the Dust and more from Queen. Available for shipping now. Deep Purple - Studio Discography (Remastered) - (1968-2013) ALAC Lossless. Normal Price: £9. It’s been our pleasure to provide UK audiophiles with the best hi res music downloads. SHN extension and requires fewer resources for its reproduction. The Official Queen Website. 9 % Track quality 99. Скачать Doro_-_Discography_1984-2019_alac. 0 Total Size: 2. Download discography Queen on site losslessalbums. Listen to this and millions more tracks online. Which brings me to the final words of my review. Download Depeche Mode - Discography 1981-2013 [FLAC] torrent or any other torrent from Audio > FLAC Direct download via magnet link. Download QUEEN -ABSOLUTE GREATEST [email protected] torrent or any en el rar 2008 Queen Greatest Hits III [LOSSLESS FLAC] Styx - Greatest Hits Delicate 6. Queen – Sheer Heart Attack. [Single] miwa – We are the light [MP3 + ALAC / CD/RAR] 1. A Night At The Opera (deluxe Edition 2011 Remaster). 9 % Track quality 100. Direct download via magnet link. ALAC is Apple lossless, and could be better than CD if the conversion to ALAC started with 24 bit we’ll mastered files. But ALAC is 16 bit lossless 48 KHz. Phil the Greek behaves badly; Charles “Jug Ears” Windsor snivels; the Dear Leader grins inanely, but though he motivates HM the Q to pull the stick out, the character is a caricature (Rory Bremner should’ve been playing him); Mrs Dear Leader behaves as if she’s lower middle. HDtracks offers WAV, AIFF, ALAC and FLAC file formats. Queen – Sheer Heart Attack. Ogre Battle 7. 2012 (26) November (26) Queen - Greatest Hits I & II (1994) ALAC; Christina Aguilera - DISCOGRAPHY [1999-2012] VA - 100 Hits of the 90S (2010) VA - The Best of Rock 2011. 53 GB, Скачать. torrent файл (основная ссылка для скачивания файла) Magnet-ссылка (альтернативная ссылка для скачивания файла) Теги: alternative rock, grunge, psychedelic rock, 1989: Описание. See full list on loudersound. We thank you for your patronage. Memory Lapse 8. m4a" WAVE TRACK 06 AUDIO. The March Of The Black Queen (Live At The Rainbow, London / November 1974) wav,flac,alac: 16bit/44. We are the light (Instrumental) Click Here Download from Rapidgator, Uploaded, PUBG-File, KatFile. m4a 34 MB /07 Treat Me Well. Of mixed German and Italian descent, she was involved in the choir, theater, and cheerleading in high school. Nevermore 9. m4a" WAVE INDEX 01 00:00:00 TRACK 08 AUDIO TITLE "Like you" ISRC USWU30600108 INDEX 00 03:35:65 FILE "08. To get a true Apple lossless file, you'd have to go back to the original source, if still available, and re-encode it to lossless. 00 ALAC 24-bit 96 kHz £12. 99 Studio Master: FLAC 24-bit 96 kHz £12. Discography; 12 Releases 3 Albums 6 Singles & EPs 3 Miscellaneous 14 Credits 2 Vocals 3 Instruments & Performance 6 Writing & Arrangement Warranted Queen ‎ (File, ALAC, Single) Not On Label (Arum Rae Self-released) none: 2014:. Comments Off on Queen Greatest Hits (1981/2014/2016) [HDTracks FLAC 24bit/96kHz] Queen Greatest Hits. QUEEN OF POP 07. WE ARE the. ALAC like FLAC can be 24bit, 44. Queen Discography Search results for goo goo dolls discography - pro evo soccer MP3 (tracks, image), CBR 320 kbps. Full Movies via Streaming Link for free. 0 Total Size: 2. No Symbol = Released exclusively as an UltraDisc II. 720p-next 01. Directed by Chris Hopewell, who also directed the music video for RTJ3’s “Don’t Get Captured,” the stop motion visual stars action figure versions of Mike and El who have been thrust into a toy-populated bedroom city where authoritarian forces have seized. 00 SIGCD446 Download only Studio Master FLAC & ALAC downloads available The choir of Jesus College Cambridge contemplates the hours that take us from day into night in a programme of works by English composers from the sixteenth and twentieth. The Loser In The End 6. A Night At The Opera (deluxe Edition 2011 Remaster). Their 1975 song, " Bohemian Rhapsody ", was number 1 for nine weeks (and a further five weeks in 1991) and is the third best-selling single of all time in the UK. Download Depeche Mode - Discography 1981-2013 [FLAC] torrent or any other torrent from Audio > FLAC Direct download via magnet link. Find Queen discography, albums and singles on AllMusic. Frank Zappa - Discography (1966-2020) EAC Rip | 265xCD + 8xDVD | FLAC Tracks/Image + Cue + Log | Full Scans Included Total Size: 179 GB | 3% RAR Recovery. The March Of The Black Queen 10. The Fairy Feller's Master-Stroke 8. His Chants d'Auvergne has long been very popular. Brian May - Back to the light - 1992 [lossless] 440. Download Depeche Mode - Discography 1981-2013 [FLAC] torrent or any other torrent from Audio > FLAC Direct download via magnet link. Buy Innuendo (2011 Remaster) by Queen on MP3, WAV, FLAC, AIFF & ALAC at Juno Download Download Innuendo (2011 Remaster) by Queen at Juno Download. Queen were one of the longest-lasting and most commercially successful bands to emerge from the British heavy rock scene of the early 1970s, but unlike their contemporaries such as Led Zeppelin, Deep Purple and Black Sabbath, they soon became just as popular with pop fans as fans of hard rock and heavy metal, beginning with "Killer Queen" from their third album "Sheer Heart Attack" in 1974. m4a 23 MB /09 Cry To Me. It's official name is "The Beatles/ The Collection" and it's catalogue number is MFSL BC-1. ALAC Downloads ALAC 176kHz/24bit Download ALAC 192kHz/24bit Download ALAC 44kHz/24bit Download DSD Queen: 2. We are the light (Instrumental) Click Here Download from Rapidgator, Uploaded, PUBG-File, KatFile. 14: 1: 47274 기타. 9 (2014) BDRip 1080p от Brazzass : 21. Angel (Cover of Massive Attack) 4. Artist = Robbie Williams Origin = Stoke-on-Trent, Staffordshire, England Genre = Pop Rock/Soft Rock/Dance/Alternative Rock Format = Ogg Vorbis (320. Queen - Made In Heaven 24 bit Vinyl Rip Year Of Release: 2020 Genre: Rock Format: Flac, Tracks Bitrate: lossless, 24bit Sample Rate: 96000Hz Audio Channels: 2. 16BIT (3) 1996 (2) 24BIT (27) A. 99 Studio Master: FLAC 24-bit 96 kHz £12. Ariana Grande - Discography (2013-2020)[16~24/MQA] Arvo Part - Various works. About Us; Chandos Records is one of the world's premier classical music record companies, best known for its ground breaking search for neglected musical gems. Mu-so è il nostro primo sistema musicale wireless. Brian May (ex-Queen) - Another World (1998. Founded in 1970, Queen released their self-titled debut album in 1973. Queen - Queen On Fire Live At The Bowl 24 bit Vinyl Rip Year Of Release: 2018 Genre: Rock Format: Flac, Tracks Bitrate: lossless, 24bit Sample Rate: 96000Hz Audio Channels: 2. If you look at this article, I would like to ask you an answer. Queen - Made In Heaven 24 bit Vinyl Rip Year Of Release: 2020 Genre: Rock Format: Flac, Tracks Bitrate: lossless, 24bit Sample Rate: 96000Hz Audio Channels: 2. Queen - Ultimate Discography 20CD FLAC [Bubanee] Posted by Bubanee in Music > Lossless. Queen was a British rock band circa 1970-today (if you want to be technical). Queen Greatest Hits III [LOSSLESS FLAC]. 5 / 5 , 4 votes. Queen Discography Search results for goo goo dolls discography - pro evo soccer MP3 (tracks, image), CBR 320 kbps. Draconian - Under a Godless Veil (Lossless) 15 0 380. Malmsteen - Дискография (1983-2016) ALAC : 4: 21. 2 GB August 06, 2020. (John Deacon joined in March 1971, giving them their fourth and final bass player). Ah, the joy of humble beginnings… Metallica, one of the biggest selling acts in American history, were born on October 28, 1981 when drummer Lars Ulrich and guitar player/singer James Hetfield got together via Ulrich’s LA Recycler newspaper ad. Gold CD Releases ~ Codes: Ì = Released as an UltraDisc only. Queen - Queen On Fire Live At The Bowl 24 bit Vinyl Rip Year Of Release: 2018 Genre: Rock Format: Flac , Tracks Bitrate: lossless, 24bit Sample Rate: 96000Hz Audio Channels: 2. 16Bit-FLAC/ALAC. m4a" WAVE INDEX 01 00:00:00. Artista: Queen Titulo: Queen - Greatest Hits I,II,III Platinum Collection (3CDs). The reissue features the original album, now on 2xLP for improved sound, along with the band’s pre-Sub Pop, self-titled EPs (released in 2003 and 2004), both of which are making. pdf), Text File (. FLAC 16 bit / Jazz / Vocal Jazz / Discography 20-10-2020, 02:38 218 aleXs All albums Billie Holiday Quality: FLAC 16 bit / 44. com Anthrax - Discography 1983-2018 (alac) Music. 0 Total Size: 2. Mu-so è il nostro primo sistema musicale wireless. 11/14/2020 at 11:31 AM Category:Japanese. QUEEN OF POP 07. 53 GB: 2 0: 18 Окт 16: Yngwie J. Buy Bellyache by Billie Eilish on MP3, WAV, FLAC, AIFF & ALAC at Juno Download Download Bellyache by Billie Eilish at Juno Download. Listen to this and millions more tracks online. Her first job was as a hostess at a restaurant while in high school. Perfect Tundra 2. Among these, L'arada emerges as a particularly intriguing work. Mu-so è il nostro primo sistema musicale wireless. Explore releases from Arum Rae at Discogs. Queen - Made In Heaven 24 bit Vinyl Rip Year Of Release: 2020 Genre: Rock Format: Flac, Tracks Bitrate: lossless, 24bit Sample Rate: 96000Hz Audio Channels: 2. QUEEN OF POP 07. Download Depeche Mode - Discography 1981-2013 [FLAC] torrent or any other torrent from Audio > FLAC Direct download via magnet link. Queen - Queen On Fire Live At The Bowl 24 bit Vinyl Rip Year Of Release: 2018 Genre: Rock Format: Flac, Tracks Bitrate: lossless, 24bit Sample Rate: 96000Hz Audio Channels: 2. Anthony Ramos - The Freedom EP, The Good & The Bad. About Chandos. Rejoice, O Queen (1:48) All of Creation Rejoices in Thee (4:33) Do Not Lament Me, O Mother (3:23) The Angel Cried Out (4:36) The Mystery of God from All Eternity (1:32) O ye Apostles, Assembled Here (2:41) Magnification for the Icon “Joy of All the Sorrowful” (3:26) With the Voice of the Archangel (5:11) To Thee, the Victorious Leader (1:16). Robbie Williams - Partial discography (1998-2018) (Vorbis ~320). We are the light 2. Download A Night At The Opera (deluxe Edition 2011 Remaster) by Queen at Juno Download. 本館8階ホールにて1月15日(水)からスタートした。. Direct download via magnet link. Lynyrd Skynyrd - 23 CD Discography [FLAC] vtwin88cube Mozart Premium Edition 40 CDs ALAC. 51 GB: 0 1: 01 Мар 16: VA - Monsters Of Metal Vol. 6 MiB) 02-Fluegel. Queen of Time is the thirteenth studio album by Finnish heavy metal band Amorphis, released worldwide on 18 May 2018 through Nuclear Blast. The March Of The Black Queen 10. Browse and Download any torrent from the category Audio > FLAC. Follow the link from the album page to True North purchase page, or use this link to True North Label Store. Plagiarism by The Dillinger Escape Plan, released 09 May 2006 1. Download Discography Music Torrents in Limetorrents. About Us; Chandos Records is one of the world's premier classical music record companies, best known for its ground breaking search for neglected musical gems. Queen II is now acknowledged as a landmark in the band’s development and while it is hardly obscure, in America it is considered to be a cult artefact revered by the likes of Billy Corgan, Steve. 99 Studio Master: FLAC 24-bit 96 kHz £12. 192KB/S MP3 320KB/S MP3 WAV FLAC ALAC AIFF. Queen Dsd Founded in 2004, Games for Change is a 501(c)3 nonprofit that empowers game creators and social innovators to drive real-world impact through games and immersive media. 2 GB August 06, 2020. Save 20% on John Wilson's Chandos Discography. wav Peak level 99. 9 % Test CRC A41FAE98. Aurora - Discography (2015-2019)[24, except Infections of a Different Kind which is in 16] AZ - Do or Die. Apple Lossless (ALAC) uses an MP4 container (with a. Ah, the joy of humble beginnings… Metallica, one of the biggest selling acts in American history, were born on October 28, 1981 when drummer Lars Ulrich and guitar player/singer James Hetfield got together via Ulrich’s LA Recycler newspaper ad. Catalog Number SQEX-10589~91 Release Date Mar 29, 2017 Publish Format Commercial Release Price 3456 JPY Media Format 3. 0 Total Size: 819. If it is difficult, mp3 320 sound source is okay. Much of the rest of his songs, though, have been unjustly neglected. matt d avella site patreon com; What happens when a tech savvy filmmaker loves expensive camera gear, but is also minimalist? Matt D Avella walks the fine line of owning cutting edge without being consumed by it squarespace collects data visit website, including: information browser, network web pages visited prior coming your ip address. Nirvana - Discography / Rock / ALAC : Скачать: Скачать. Major Dundee. Nirvana Live. Queen - Discography [iTunes] (1973-2015) AAC [ 4. Spawning Pool 7. 28 GB: 6 3: 18 Окт 16: Yngwie J. Ariana Grande - Discography (2013-2020)[16~24/MQA] Arvo Part - Various works. Abigail Mac, Actress: Abigail. We are the light (Instrumental) Click Here Download from Rapidgator, Uploaded, PUBG-File, KatFile. Download Discography Music Torrents in Limetorrents. Find album reviews, stream songs, credits and award information for Queen - Queen on AllMusic - 1973 - Like any patchy but promising debut from a…. Browse and Download any torrent from the user Kitlope. com Anthrax - Discography 1983-2018 (alac) 1 year torlock. 264-CMRG; The Little Things 2021 2160p HDR HMAX WEB-DL H264 Atmos-EVO; The Night 2021 1080p WEB-DL DD5. Discografía Queen Completa - Calidad ALAC - Excelente Rango Dinámico jueves, junio 18, 2020 Jorge Pablo Alonso. ダウンロード 逆転検事2 わずか4ステップでapk: ↲ ステップ 1: デバイスに アプリ「逆転検事2」では、大人気の推理・法廷アドベンチャーゲーム「逆転裁判」シリーズのスピンオフにあたる「逆転検事」シリーズの第2弾としてポータブルゲーム機用に制作されたゲームを、スマートフォンでいつで. , 308 CD 1967-2010 MP3 320 kbps. Save 20% on John Wilson's Chandos Discography. Moein Discography (Persian Music)[www. (Apple Lossless Audio Codec): Plays On iTunes Apple Lossless supports up to 8 channels of audio at 16, 20, 24 and 32 bit depth with a maximum sample rate of 384kHz. Download discography Queen on site losslessalbums. Plagiarism by The Dillinger Escape Plan, released 09 May 2006 1. com Anthrax - Discography 1983-2018 (alac) Music. 2012 (26) November (26) Queen - Greatest Hits I & II (1994) ALAC; Christina Aguilera - DISCOGRAPHY [1999-2012] VA - 100 Hits of the 90S (2010) VA - The Best of Rock 2011. Malmsteen - Дискография (1983-2016) ALAC : 4: 21. Souyuan by Atrium Carceri, released 19 November 2008 1. 14: 0: 47276 기타: Europe - Discography 1983~2008 FLAC 토렌트 직공 2018. Queen – Queen On Fire Live At The Bowl 24 bit Vinyl Rip Year Of Release: 2018 Genre: Rock Format: Flac , Tracks Bitrate: lossless, 24bit Sample Rate: 96000Hz Audio Channels: 2. com Anthrax - Discography 1983. Yanga Chief is at it again with yet another irreplaceable banger hit track which have being making serious waves in the music industry captioned Popstar. 14: 0: 47277 기타: 팍스차일드 토렌트하자 공유 2018. [DHR-Raws](200902)[Album]雨宮天 – Paint it, BLUE (ALAC_MP3)生産限定盤Making Movie付 [DHR-Raws](200902)[Album]雨宮天 – Paint it, BLUE(MP3 320K) 01-Paint it, BLUE -overture-. Queen was a British rock band circa 1970-today (if you want to be technical). Download Depeche Mode - Discography 1981-2013 [FLAC] torrent or any other torrent from Audio > FLAC Direct download via magnet link. Gary Stewart Discography Downloads; Tracy Bonham Discography Downloads; Torrent Downloads; That said, we know that the best torrent site is always the one that has the high-quality torrent you're after, and with the most seeders, so a large and thorough list of torrent sites, like those in the list below the torrents that are the best of the best, is always a welcome resource to find. Helloween - Дискография (1985-2015) ALAC. Скачать Doro_-_Discography_1984-2019_alac. The March Of The Black Queen (Live At The Rainbow, London / November 1974) wav,flac,alac: 16bit/44. Queen - Queen On Fire Live At The Bowl 24 bit Vinyl Rip Year Of Release: 2018 Genre: Rock Format: Flac, Tracks Bitrate: lossless, 24bit Sample Rate: 96000Hz Audio Channels: 2. If you look at this article, I would like to ask you an answer. Alternate Sides 3. Full Movies via Streaming Link for free. 29 2 드라 | 여신강림. m4a Apple Music Rip 256 Kbps Various Artists - Top 30 Most. 55 GB: 303: 1 year: 146: 72: Led Zeppelin - Complete Studio Album. Download A Night At The Opera (deluxe Edition 2011 Remaster) by Queen at Juno Download. v = Released as both an UltraDisc and an UltraDisc II. Spawning Pool 7. Deep Purple - Studio Discography (Remastered) - (1968-2013) ALAC Lossless. 51 MB: 40: 8: Music. Queen Discography [FLAC] Andrea Bertolini & Minimize - Beat My Tweet (Original Mix) DOWNLOAD TECH HOUSE - DEEP HOUSE - MINIMAL - TECHNO - 75 EXCLUSIVE HQ TRACKS. Discography; 12 Releases 3 Albums 6 Singles & EPs 3 Miscellaneous 14 Credits 2 Vocals 3 Instruments & Performance 6 Writing & Arrangement Warranted Queen ‎ (File, ALAC, Single) Not On Label (Arum Rae Self-released) none: 2014:. [Single] miwa – We are the light [MP3 + ALAC / CD/RAR] 1. link/queen-greatest-hits-198120142016-hdtracks-flac-24bit96khzQueen - Greatest Hits I,II,III Platinum Collection 3CDs [3. Explore releases from Arum Rae at Discogs. (John Deacon joined in March 1971, giving them their fourth and final bass player). rar Discografia - Cat Stevens. Ra Ra Riot's Wes Miles on Recording at His Parents' House, Learning to be a Frontman, and Falsetto. com Anthrax - Discography 1983-2018 (alac Music 4 hours torrentfunk. Originally called Smile, in 1970 singer Freddie Mercury came up with the new name for the band. Of mixed German and Italian descent, she was involved in the choir, theater, and cheerleading in high school. torrent Как тут качать?. Ont travaillé à ce bijou des orfèvres de l’harmonie comme Master Mwana Congo, Ringo Star (guitares), Boffi (basse), Tom’s (batterie) ; quasiment les mêmes coupables qui ont laissé leurs empreintes digitales dans le volume culte « L’argent appelle l’argent » de Pamelo Mounka. Die Bitrate (Bandbreite) einer Audiodatei ist bei unkomprimierten Formaten zunächst nichts anderes als die Zusammenfassung von Samplerate, Bittiefe und der Anzahl der Kanäle. Flash Gordon (Remastered). Nevermore 9. A Night At The Opera (deluxe Edition 2011 Remaster). 2012 (26) November (26) Queen - Greatest Hits I & II (1994) ALAC; Christina Aguilera - DISCOGRAPHY [1999-2012] VA - 100 Hits of the 90S (2010) VA - The Best of Rock 2011. Merit(s): This MP3 download site will publish some music-related blogs under the [Features] section and users can get much useful information on the live shows, festivals, awesome playlists, new songs/albums release, etc. 14: 1: 47274 기타. We are the light 2. Queen - Discography [iTunes] (1973-2015) AAC [ 4. 11/14/2020 at 11:31 AM Category:Japanese. Download Depeche Mode - Discography 1981-2013 [FLAC] torrent or any other torrent from Audio > FLAC Direct download via magnet link. Aurora - Discography (2015-2019)[24, except Infections of a Different Kind which is in 16] AZ - Do or Die. aaroni2011 New Member. 1 kHz (Tracks) Artist: Anna B Savage Title: A Common Turn Released: 2021 Style: Indie, Alternative, Singer-Songwriter RAR Size: 843 Mb + 242 Mb. to/TheseTwoWindowsIDShop 'These Two Windows' merch: https://alecbenjamin. The March Of The Black Queen 10. Tewonobasu 08. Queen - Queen On Fire Live At The Bowl 24 bit Vinyl Rip Year Of Release: 2018 Genre: Rock Format: Flac, Tracks Bitrate: lossless, 24bit Sample Rate: 96000Hz Audio Channels: 2. 0 Total Size: 2. 5 / 5 , 4 votes. link/queen-greatest-hits-198120142016-hdtracks-flac-24bit96khzQueen - Greatest Hits I,II,III Platinum Collection 3CDs [3. com Anthrax - Discography 1983-2018 (alac) Music. ︎ MP3, FLAC, ALAC, WAV – die wichtigsten Musikformate im Vergleich. Hairspray Queen. txt) or read online for free. Comments Off on Queen Greatest Hits (1981/2014/2016) [HDTracks FLAC 24bit/96kHz] Queen Greatest Hits. Part 1 of this interview with archivist Greg Brooks and documentary maker Simon Lupton sees us talk about their revamped book, ‘Freddie Mercury: A Life, In His Own Words’ which was released on September 5th, 2019. Related Blog Posts. Listen to this and millions more tracks online. Nirvana Live. Queen Discography [FLAC] Andrea Bertolini & Minimize – Beat My Tweet (Original Mix) DOWNLOAD TECH HOUSE - DEEP HOUSE - MINIMAL - TECHNO - 75 EXCLUSIVE HQ TRACKS. 1 kHz (Tracks) Artist: Queen & Adam Lambert Title: Live Around The World Released: 2020 Style: Rock RAR Size: 1. Directed by Chris Hopewell, who also directed the music video for RTJ3’s “Don’t Get Captured,” the stop motion visual stars action figure versions of Mike and El who have been thrust into a toy-populated bedroom city where authoritarian forces have seized. Queen of Time is the thirteenth studio album by Finnish heavy metal band Amorphis, released worldwide on 18 May 2018 through Nuclear Blast. Live @ Queercore Digital 2k20 | Queen G to stream in hi-fi, or to download in True CD Quality on Qobuz. ALAC Downloads ALAC 176kHz/24bit Download ALAC 192kHz/24bit Download ALAC 44kHz/24bit Download DSD Downloads DSD (Double Rate) 5. Queen Studio Discography 48/24 FLAC. Queen Dsd Founded in 2004, Games for Change is a 501(c)3 nonprofit that empowers game creators and social innovators to drive real-world impact through games and immersive media. Artista: Queen Titulo: Queen - Greatest Hits I,II,III Platinum Collection (3CDs). The March Of The Black Queen 10. 0 Total Size: 2. Direct download via magnet link. net or download our mobile music app. Gary Stewart Discography Downloads; Tracy Bonham Discography Downloads; Torrent Downloads; That said, we know that the best torrent site is always the one that has the high-quality torrent you're after, and with the most seeders, so a large and thorough list of torrent sites, like those in the list below the torrents that are the best of the best, is always a welcome resource to find. Sub Pop will release Wolf Parade’s Apologies to the Queen Mary: Deluxe Edition, a reissue of the group’s acclaimed first album, worldwide on 3xLP/DL May 13th. If it is difficult, mp3 320 sound source is okay. torrent файл] :: Детали раздачи Данная раздача является свободной — учитывается только количество отданного, количество скачанного не фиксируется. Despite not being an immediate success, Queen gained popularity in Britain with their second album Queen II in 1974. 1974: Sheer Heart Attack - Queen. The 1975 Discography. Ariana Grande - Discography (2013-2020)[16~24/MQA] Arvo Part - Various works. me Anthrax - Discography 1983-2018 (alac) Music 10 months yourbittorrent. crazy night 03. 53 GB: 2 0: 18 Окт 16: Yngwie J. 1 kHz (Tracks) Artist: Anna B Savage Title: A Common Turn Released: 2021 Style: Indie, Alternative, Singer-Songwriter RAR Size: 843 Mb + 242 Mb. 14: 1: 47274 기타. Funny How Love Is 11. See full list on 8notes. The March Of The Black Queen 10. net or download our mobile music app. [DHR-Raws](200902)[Album]雨宮天 – Paint it, BLUE (ALAC_MP3)生産限定盤Making Movie付 [DHR-Raws](200902)[Album]雨宮天 – Paint it, BLUE(MP3 320K) 01-Paint it, BLUE -overture-. Download A Night At The Opera (deluxe Edition 2011 Remaster) by Queen at Juno Download. Gary Stewart Discography Downloads; Tracy Bonham Discography Downloads; Torrent Downloads; That said, we know that the best torrent site is always the one that has the high-quality torrent you're after, and with the most seeders, so a large and thorough list of torrent sites, like those in the list below the torrents that are the best of the best, is always a welcome resource to find. Lossless sound formats (WAV, FLAC, AIFF, ALAC, DSF, DFF, others) provide storing of audio stuff without losses. Find Queen discography, albums and singles on AllMusic. 2013 You can also request more discographies @ wrathem(dot)com. Anthony Ramos - The Freedom EP, The Good & The Bad. The nearest I've heard to a "new" great Queen song is "Go or Go Ahead" by Rufus Wainwright from Want One, which has a melody worthy of Freddy, Queen-esque backing vocals and even a distinct touch of Brian May about some of the guitar-work. Quality: FLAC 24 bit / 96 kHz (Tracks) + FLAC 16 bit / 44. 9 % Test CRC A41FAE98. Deep Purple - Studio Discography (Remastered) - (1968-2013) ALAC Lossless. Download metal (Death Metal, Gothic Metal, Black Metal, Doom Metal, Thrash Metal, Folk Metal, Power Metal), Rock, Heavy music from us for free!Torrent tracker of metal music. Artist = Robbie Williams Origin = Stoke-on-Trent, Staffordshire, England Genre = Pop Rock/Soft Rock/Dance/Alternative Rock Format = Ogg Vorbis (320. Lynyrd Skynyrd - 23 CD Discography [FLAC] vtwin88cube Mozart Premium Edition 40 CDs ALAC. ダウンロード 逆転検事2 わずか4ステップでapk: ↲ ステップ 1: デバイスに アプリ「逆転検事2」では、大人気の推理・法廷アドベンチャーゲーム「逆転裁判」シリーズのスピンオフにあたる「逆転検事」シリーズの第2弾としてポータブルゲーム機用に制作されたゲームを、スマートフォンでいつで. wav Peak level 99. Angra - Discography (1992 - 2010)[160~231, except Temple of Shadows in 16] Anita Baker - Rhythm of Love. Ra Ra Riot's Wes Miles on Recording at His Parents' House, Learning to be a Frontman, and Falsetto. 53 GB: 2 0: 18 Окт 16: Yngwie J. アマノ bx6000 取扱 説明 書 ⭐ 完全版 斎藤 あっ マーくんと身体が入れ替わった 新規購入キャンペーン!下取無しでも下取価格でご提供!。【5年間無料延長保証】【あす楽対応】アマノ電子タイムレコーダーamano 自動集計機能付 mx-1000タイム レコーダー延長保証のアマノタイム専門館【4欄・黒印. The Fairy Feller's Master-Stroke 8. com Anthrax - Discography 1983-2018 (alac) 1 year rutor. The Big Bundle. Anthony Ramos - The Freedom EP, The Good & The Bad. 1974: Sheer Heart Attack - Queen. Queen - Ultimate Discography 20CD FLAC [Bubanee] Posted by Bubanee in Music > Lossless. QUEEN(以下・クイーン)の栄光と軌跡を巡る展覧会『QUEEN EXHIBITION JAPAN ~Bohemian Rhapsody~』が日本橋髙島屋S. Queen - Live At Wembley Stadium Year Of Release: 2011 Genre: Rock Format: Flac, Tracks Bitrate: lossless Sample Rate: 16bit/44. (John Deacon joined in March 1971, giving them their fourth and final bass player). Brazzaville - The Official Discography (1998-2018) (11 Albums, 2 Compilations + David Arthur Brown solo album) lossless 439. 53 GB, Скачать. ALAC is Apple lossless, and could be better than CD if the conversion to ALAC started with 24 bit we’ll mastered files. Queen were one of the longest-lasting and most commercially successful bands to emerge from the British heavy rock scene of the early 1970s, but unlike their contemporaries such as Led Zeppelin, Deep Purple and Black Sabbath, they soon became just as popular with pop fans as fans of hard rock and heavy metal, beginning with "Killer Queen" from their third album "Sheer Heart Attack" in 1974. Funny How Love Is 11. Find Queen discography, albums and singles on AllMusic. Download flac lossless music free. Available for shipping now. 1 kHz (Tracks) Artist: Queen & Adam Lambert Title: Live Around The World Released: 2020 Style: Rock RAR Size: 1. 0 Total Size: 2. Yanga Chief is at it again with yet another irreplaceable banger hit track which have being making serious waves in the music industry captioned Popstar. Wilco live downloads and online music streaming of 03/27/1999 at Shepherd's Bush Empire London, UK. 16Bit-FLAC/ALAC. Nirvana - Discography / Rock / ALAC : Скачать: Скачать. 55 GB: 303: 1 year: 146: 72: Led Zeppelin - Complete Studio Album. Queen Studio Discography 48/24 FLAC. Doro - Дискография (1984-2019) ALAC. Nevermore 9. The March Of The Black Queen 10. Directed by Chris Hopewell, who also directed the music video for RTJ3’s “Don’t Get Captured,” the stop motion visual stars action figure versions of Mike and El who have been thrust into a toy-populated bedroom city where authoritarian forces have seized. Of mixed German and Italian descent, she was involved in the choir, theater, and cheerleading in high school. The reissue features the original album, now on 2xLP for improved sound, along with the band’s pre-Sub Pop, self-titled EPs (released in 2003 and 2004), both of which are making. (John Deacon joined in March 1971, giving them their fourth and final bass player). But what ideas! Almost every one of Queen's signatures are already present, from Freddie Mercury's operatic harmonies to Brian May's rich, orchestral guitar. Quality: FLAC 24 bit / 48 kHz (Tracks) + FLAC 16 bit / 44. Queen II is now acknowledged as a landmark in the band’s development and while it is hardly obscure, in America it is considered to be a cult artefact revered by the likes of Billy Corgan, Steve. To get a true Apple lossless file, you'd have to go back to the original source, if still available, and re-encode it to lossless. [Single] miwa – We are the light [MP3 + ALAC / CD/RAR] 1. Despite not being an immediate success, Queen gained popularity in Britain with their second album Queen II in 1974. Draconian - Under a Godless Veil (Lossless) 15 0 380. 1kHz Audio Channels: 2. ALAC like FLAC can be 24bit, 44. com Anthrax - Discography 1983-2018 (alac) Music 1 day yourbittorrent. 55 GB: 303: 1 year: 146: 72: Led Zeppelin - Complete Studio Album Discography 1969-1982 [FLAC] Posted by rustilldown78 in Music > Lossless. 9 % Track quality 99. Originally called Smile, in 1970 singer Freddie Mercury came up with the new name for the band. Helloween - Дискография (1985-2015) ALAC. m4a 34 MB /07 Treat Me Well. Find Queen discography, albums and singles on AllMusic. We are the light 2. 99 Studio Master: FLAC 24-bit 96 kHz £12. Malmsteen - Дискография (1983-2016) ALAC : 4: 21. Nirvana Live. Download QUEEN -ABSOLUTE GREATEST [email protected] torrent or any en el rar 2008 Queen Greatest Hits III [LOSSLESS FLAC] Styx - Greatest Hits Delicate 6. 1kHz 01:35: N/A. Save 20% on John Wilson's Chandos Discography. 51 GB: 0 1: 01 Мар 16: VA - Monsters Of Metal Vol. Queen - Queen On Fire Live At The Bowl 24 bit Vinyl Rip Year Of Release: 2018 Genre: Rock Format: Flac, Tracks Bitrate: lossless, 24bit Sample Rate: 96000Hz Audio Channels: 2. Draconian - Live @ Metal Gates MMXVIII (Bootleg) 6 0 140. From The Muddy Banks Of The Wishkah ALAC 1996 Discography FLAC 1989-2013. Mgs5 ヘリ 邪魔 クラック 登れない 19 ez flash2 エッチ 写真 とらいさうんど お屋敷づとめ vol 2 真夜 真凜 双子の甘トロご奉仕. ダウンロード 逆転検事2 わずか4ステップでapk: ↲ ステップ 1: デバイスに アプリ「逆転検事2」では、大人気の推理・法廷アドベンチャーゲーム「逆転裁判」シリーズのスピンオフにあたる「逆転検事」シリーズの第2弾としてポータブルゲーム機用に制作されたゲームを、スマートフォンでいつで. Queen Discography [FLAC] Andrea Bertolini & Minimize – Beat My Tweet (Original Mix) DOWNLOAD TECH HOUSE - DEEP HOUSE - MINIMAL - TECHNO - 75 EXCLUSIVE HQ TRACKS. Music lossless for lovers of good sound. Live @ Queercore Digital 2k20 | Queen G to stream in hi-fi, or to download in True CD Quality on Qobuz. 00 SIGCD474 Download only Studio Master FLAC & ALAC downloads available A second voyage through the miracle that is the Baldwin Partbooks draws from the singers of Contrapunctus and their director Owen Rees performances of rare integrity—and. We thank you for your patronage. m4a Apple Music Rip 256 Kbps Various Artists - Top 30 Most. Aurora - Discography (2015-2019)[24, except Infections of a Different Kind which is in 16] AZ - Do or Die. Metallica Discography Rar. Yo, another marathon with @Xadne hosting. 15 GB: 1 0: 18 Окт 16: Yngwie J. Angra - Discography (1992 - 2010)[160~231, except Temple of Shadows in 16] Anita Baker - Rhythm of Love. 9 % Track quality 100. SHN extension and requires fewer resources for its reproduction. Queen - Queen On Fire Live At The Bowl 24 bit Vinyl Rip Year Of Release: 2018 Genre: Rock Format: Flac, Tracks Bitrate: lossless, 24bit Sample Rate: 96000Hz Audio Channels: 2.